HD-AREA wünscht Euch eine besinnliche Weihnachtszeit ;)

DNS SERVER AENDERNum der staatlichen Zensur zu umgehen. Sollten wir von eurem Provider geseprrt werden, nutzt den TOR BROWSER oder ändert euren DNS SERVER.

Filmwünsche können bei uns im Forum abgegeben werden

Wir Speichern Nicht




 
 
 
Top Releases
The.Bouncer.2018.German.DL.1...
Kodachrome.2017.German.AC3D....
Operation.Finale.2018.German...
The.Bouncer.2018.MULTi.COMPL...
Nocturnal.Animals.2016.Germa...
Mogli.Legende.des.Dschungels...
Mogli.Legende.des.Dschungels...
The.Bouncer.2018.German.720p...
The.Bouncer.2018.German.1080...
Cesar.Chavez.2014.German.AC3...

Cinedubs
Venom.German.DL.AC3.Dubbed.1...
Venom.2018.German.AC3D.5.1.D...
Venom.2018.German.AC3D.5.1.D...
Das.krumme.Haus.2017.GERMAN....
Das.krumme.Haus.2017.GERMAN....
I.Still.See.You.Sie.lassen.d...
I.Still.See.You.Sie.lassen.d...
Braven.2018.German.AC3D.DL.1...
Braven.2018.German.AC3D.DL.7...
Smallfoot.Ein.eisigartiges.A...

Neuerscheinungen 2017-18
Hoere.die.Stille.2016.GERMAN...
Renegades.Mission.of.Honor.2...
Even.Lovers.Get.the.Blues.20...
In.Darkness.Die.Wahrheit.lie...
Terrifier.2016.GERMAN.720p.B...
Hoere.die.Stille.Der.Schreck...
The.Night.Train.2016.GERMAN....
Skyscraper.2018.German.AC3.1...
Meine.teuflisch.gute.Freundi...
Occupation.2018.GERMAN.DL.AC...

XXX
Club.One.9.XXX.1080p.WEBRip....
Club.One.9.XXX.720p.WEBRip.M...
Black.Street.Hookers.105.XXX...
Black.Street.Hookers.105.XXX...
Cosmid.18.12.03.Abigail.Andr...
ConorCoxxx.18.06.08.Scarlett...
CrowdBondage.18.12.03.Susy.G...
DesperateAmateurs.18.12.02.B...
ClaudiaMarie.18.11.25.Mr.Mar...
DateSlam.18.12.03.Kelly.Horn...
DickOnTrip.18.12.03.Black.Wh...
ConorCoxxx.18.07.13.Nadia.Wh...
CzechCasting.18.12.01.Nikol....
CreampieInAsia.18.11.30.Pon....
ConorCoxxx.18.07.20.Marica.H...
Cosmid.18.12.01.Bella.Bruni....
ConorCoxxx.18.11.23.Ashton.B...
ConorCoxxx.18.06.29.Erica.La...
ATKGirlfriends.18.12.01.Zoe....
ClubSeventeen.18.12.01.Aurel...

3D
The.Art.of.Flight.3D.2011.Ge...
The.End.Of.The.World.3D.2010...
The.First.Avenger.Civil.War....
Die.Unglaublichen.2.2018.3D....
Skyscraper.3D.2018.MULTi.COM...
Ant-Man.And.The.Wasp.3D.2018...
Ant.Man.and.the.Wasp.3D.2018...
Die.Unglaublichen.2.3D.2018....
Die.Unglaublichen.2.2018.3D....
Die.Unglaublichen.2.2018.3D....
Sharknado.6.The.Last.One.3D....
Deep.Kleine.Helden.der.Tiefs...
Deep.3D.2017.MULTI.COMPLETE....
Detective.Dee.und.die.Legend...
Detective.Dee.und.die.Legend...

Old_Stuff
Akte.X.S04.German.DTS.DL.108...
Akte.X.S03.German.DTS.DL.108...
Dunkirk.1958.COMPLETE.BLURAY...
Das.Wunder.von.Manhattan.199...
The.Amazing.Spiderman.2.Rise...
Rise.of.the.Predator.2014.Ge...
Detective.Dee.und.das.Geheim...
Detective.Dee.Und.Der.Fluch....
Ghost.Rider.Spirit.of.Vengea...
Species.IV.Das.Erwachen.2007...
Species.IV.Das.Erwachen.2007...
Hotel.Transsilvanien.2012.Ge...
The.Dead.2010.German.DL.1080...
The.Dead.2.India.2013.German...
Britney.Spears.Live.The.Femm...

Filme
Pandorum.2009.OPEN.MATTE.Ger...
Die.Maske.1994.German.AC3.DL...
Blutmond.aka.Manhunt.1986.Ge...
Mr.Right.2015.German.DL.1080...
Die.Osmanen.Geschichte.eines...
Große.Völker.der.Geschicht...
Die.Unbestechlichen.aka.The....
Planet.51.2009.German.DL.108...
Arrow.S06.COMPLETE.German.DL...
Die.Bestimmung.Allegiant.201...
Ice.S02.GERMAN.DL.1080p.HDTV...
Ice.S02.GERMAN.DL.720p.HDTV....
Assassins.Creed.2016.German....
Sully.2016.German.DTS.DL.108...
Sing.2016.German.DL.1080p.Bl...
Mother.2017.German.DL.1080p....
The.Safe.2017.German.DTS.DL....
Wildes.Russland.2008.German....
Dogs.Of.Berlin.S01.COMPLETE....
Arielle.die.Meerjungfrau.198...
Road.to.Hell.UNCUT.2016.Germ...
Die.Hitler.Chronik.2018.COMP...
Best.Laid.Plans.1999.German....
Chaotische.Weihnachten.1988....

 
 
Kodachrome.2017.German.AC3D.5.1.DL.1080p.BluRay.x264-BluRHD

Jahr: 2017
Genre: Drama
Sprache: Deutsch AC3 | Englisch DTS
Laufzeit: 1h 45mn
Bitrate: 11.1 Mbps
Format: MKV
Größe: 8.12 GiB
Release:

Beschreibung:

Musiklabel-Chef Matt ist völlig überrumpelt, als eines Tages die Pflegerin seines Vaters, den er seit Ewigkeiten nicht mehr gesehen hat, bei ihm aufschlägt. Sie berichtet Matt, dass sein Vater, ein draufgängerischen Foto-Journalist, Krebs im Endstadium habe und es sein letzter Wunsch sei, mit seinem Sohn einen Roadtrip nach Kansas zu unternehmen, weil dort das letzte noch existierende Labor stehe, das noch Kodachrome-Bilder entwickelt.



Complete name                            : bhd-kodac-1080p.mkv
Format                                   : Matroska
Format version                           : Version 4 / Version 2
File size                                : 8.12 GiB
Duration                                 : 1h 45mn
Overall bit rate                         : 11.1 Mbps
Encoded date                             : UTC 2018-12-05 15:03:44
Writing application                      : mkvmerge v8.8.0 ('Wind at my back') 32bit
Writing library                          : libebml v1.3.3 + libmatroska v1.4.4
DURATION                                 : 01:44:35.102000000
NUMBER_OF_FRAMES                         : 1351
NUMBER_OF_BYTES                          : 50345
_STATISTICS_WRITING_APP                  : mkvmerge v8.8.0 ('Wind at my back') 32bit
_STATISTICS_WRITING_DATE_UTC             : 2018-12-05 15:03:44
_STATISTICS_TAGS                         : BPS DURATION NUMBER_OF_FRAMES NUMBER_OF_BYTES

Video
ID                                       : 1
Format                                   : AVC
Format/Info                              : Advanced Video Codec
Format profile                           : High@L4.1
Format settings, CABAC                   : Yes
Format settings, ReFrames                : 4 frames
Codec ID                                 : V_MPEG4/ISO/AVC
Duration                                 : 1h 45mn
Bit rate                                 : 8 959 Kbps
Width                                    : 1 920 pixels
Height                                   : 1 080 pixels
Display aspect ratio                     : 16:9
Frame rate mode                          : Constant
Frame rate                               : 23.976 fps
Color space                              : YUV
Chroma subsampling                       : 4:2:0
Bit depth                                : 8 bits
Scan type                                : Progressive
Bits/(Pixel*Frame)                       : 0.180
Stream size                              : 6.38 GiB (79%)
Writing library                          : x264 core 157 r2932 303c484
Encoding settings                        : cabac=1 / ref=4 / deblock=1:-3:-3 / analyse=0x3:0x133 / me=umh / subme=9 / psy=1 / psy_rd=1.00:0.00 / mixed_ref=1 / me_range=24 / chroma_me=1 / trellis=1 / 8x8dct=1 / cqm=0 / deadzone=21,11 / fast_pskip=0 / chroma_qp_offset=-2 / threads=24 / lookahead_threads=4 / sliced_threads=0 / nr=0 / decimate=1 / interlaced=0 / bluray_compat=0 / constrained_intra=0 / bframes=8 / b_pyramid=2 / b_adapt=2 / b_bias=0 / direct=3 / weightb=1 / open_gop=0 / weightp=2 / keyint=250 / keyint_min=23 / scenecut=40 / intra_refresh=0 / rc_lookahead=60 / rc=2pass / mbtree=1 / bitrate=8959 / ratetol=1.0 / qcomp=0.60 / qpmin=0 / qpmax=69 / qpstep=4 / cplxblur=20.0 / qblur=0.5 / vbv_maxrate=62500 / vbv_bufsize=78125 / nal_hrd=none / filler=0 / ip_ratio=1.40 / aq=1:1.00
Default                                  : Yes
Forced                                   : No

Audio #1
ID                                       : 2
Format                                   : E-AC-3
Format/Info                              : Audio Coding 3
Format settings, Endianness              : Big
Codec ID                                 : A_EAC3
Duration                                 : 1h 45mn
Bit rate mode                            : Constant
Bit rate                                 : 640 Kbps
Channel(s)                               : 6 channels
Channel positions                        : Front: L C R, Side: L R, LFE
Sampling rate                            : 48.0 KHz
Compression mode                         : Lossy
Delay relative to video                  : 24ms
Stream size                              : 481 MiB (6%)
Title                                    : German
Language                                 : German
Default                                  : Yes
Forced                                   : No

Audio #2
ID                                       : 3
Format                                   : DTS
Format/Info                              : Digital Theater Systems
Mode                                     : 16
Format settings, Endianness              : Big
Codec ID                                 : A_DTS
Duration                                 : 1h 45mn
Bit rate mode                            : Constant
Bit rate                                 : 1 509 Kbps
Channel(s)                               : 6 channels
Channel positions                        : Front: L C R, Side: L R, LFE
Sampling rate                            : 48.0 KHz
Bit depth                                : 24 bits
Compression mode                         : Lossy
Stream size                              : 1.11 GiB (14%)
Title                                    : English
Language                                 : English
Default                                  : No
Forced                                   : No

Text #1
ID                                       : 4
Format                                   : UTF-8
Codec ID                                 : S_TEXT/UTF8
Codec ID/Info                            : UTF-8 Plain Text
Title                                    : German forced
Language                                 : German
Default                                  : Yes
Forced                                   : Yes

Text #2
ID                                       : 5
Format                                   : UTF-8
Codec ID                                 : S_TEXT/UTF8
Codec ID/Info                            : UTF-8 Plain Text
Title                                    : German full
Language                                 : German
Default                                  : No
Forced                                   : No

Text #3
ID                                       : 6
Format                                   : UTF-8
Codec ID                                 : S_TEXT/UTF8
Codec ID/Info                            : UTF-8 Plain Text
Title                                    : English full
Language                                 : English
Default                                  : No
Forced                                   : No


Download:
Share Online Share OnlineShare OnlineShare Online
 

Kommentare