HD-AREA wünscht Euch eine besinnliche Weihnachtszeit ;)

DNS SERVER AENDERNum der staatlichen Zensur zu umgehen. Sollten wir von eurem Provider geseprrt werden, nutzt den TOR BROWSER oder ändert euren DNS SERVER.

Filmwünsche können bei uns im Forum abgegeben werden

Wir Speichern Nicht




 
 
 
Top Releases
Braven.2018.MULTI.COMPLETE.B...
Paradox.Kill.Zone.Bangkok.20...
Mary.und.die.Blume.der.Hexen...
The.Bouncer.2018.German.DL.1...
Kodachrome.2017.German.AC3D....
Operation.Finale.2018.German...
The.Bouncer.2018.MULTi.COMPL...
Nocturnal.Animals.2016.Germa...
Mogli.Legende.des.Dschungels...
Mogli.Legende.des.Dschungels...

Cinedubs
Venom.German.DL.AC3.Dubbed.1...
Venom.2018.German.AC3D.5.1.D...
Venom.2018.German.AC3D.5.1.D...
Das.krumme.Haus.2017.GERMAN....
Das.krumme.Haus.2017.GERMAN....
I.Still.See.You.Sie.lassen.d...
I.Still.See.You.Sie.lassen.d...
Braven.2018.German.AC3D.DL.1...
Braven.2018.German.AC3D.DL.7...
Smallfoot.Ein.eisigartiges.A...

Neuerscheinungen 2017-18
Shapeshifter.2018.German.DL....
Shapeshifter.2018.German.720...
Das.zweite.Gesicht.The.Good....
Galaxina.1980.MULTi.COMPLETE...
Rendezvous.mit.einer.Leiche....
Bitter.Moon.1992.MULTi.COMPL...
Zum.Teufel.mit.den.Kohlen.Br...
Die.Nackten.und.die.Toten.Th...
Terrifier.2016.COMPLETE.BLUR...
Die.Koenige.der.Sonne.Kings....

XXX
FitnessRooms.18.12.03.Ashley...
GroupSexGames.18.11.25.Ann.M...
ATKHairy.18.12.03.Isabel.Ste...
GermanGooGirls.18.12.02.Ria....
GirlsGoneWild.18.11.29.Lexi....
Fitting-Room.18.12.01.Little...
ATKHairy.18.12.02.Pearl.Sage...
GirlsOutWest.18.12.03.Tash.T...
FatManFuck.17.09.22.Sophia.X...
FemJoy.18.12.01.Sasha.C.An.A...
FatManFuck.17.09.22.Skyler.S...
FamilyLust.18.11.24.Keilani....
GirlsGonePink.18.12.03.Madis...
GirlsGoneWild.18.11.26.Eden....
GloryHole.18.12.03.Karma.RX....
FuckTeamFive.18.12.01.Ariell...
GirlsGoneWild.18.11.24.Clair...
FirstAnalQuest.18.12.02.Pame...
FatManFuck.17.09.23.Kate.XXX...
FatManFuck.17.09.23.Amber.XX...

3D
The.Art.of.Flight.3D.2011.Ge...
The.End.Of.The.World.3D.2010...
The.First.Avenger.Civil.War....
Die.Unglaublichen.2.2018.3D....
Skyscraper.3D.2018.MULTi.COM...
Ant-Man.And.The.Wasp.3D.2018...
Ant.Man.and.the.Wasp.3D.2018...
Die.Unglaublichen.2.3D.2018....
Die.Unglaublichen.2.2018.3D....
Die.Unglaublichen.2.2018.3D....
Sharknado.6.The.Last.One.3D....
Deep.Kleine.Helden.der.Tiefs...
Deep.3D.2017.MULTI.COMPLETE....
Detective.Dee.und.die.Legend...
Detective.Dee.und.die.Legend...

Old_Stuff
Akte.X.S04.German.DTS.DL.108...
Akte.X.S03.German.DTS.DL.108...
Dunkirk.1958.COMPLETE.BLURAY...
Das.Wunder.von.Manhattan.199...
The.Amazing.Spiderman.2.Rise...
Rise.of.the.Predator.2014.Ge...
Detective.Dee.und.das.Geheim...
Detective.Dee.Und.Der.Fluch....
Ghost.Rider.Spirit.of.Vengea...
Species.IV.Das.Erwachen.2007...
Species.IV.Das.Erwachen.2007...
Hotel.Transsilvanien.2012.Ge...
The.Dead.2010.German.DL.1080...
The.Dead.2.India.2013.German...
Britney.Spears.Live.The.Femm...

Filme
Paratrooper.GERMAN.1988.DL.7...
American.Horror.Story.S08.GE...
American.Horror.Story.S08.GE...
Quantico.S03.GERMAN.DUBBED.7...
Outlander.S04.German.DD51.DL...
Krypton.S01.German.DD51.Dubb...
Metropolis.Berlin.Zwischen.K...
Hollywood.Adventures.2015.Ge...
Japans.Untergang.2013.German...
Hell.Baby.2013.German.DL.108...
Der.letzte.Wolf.2015.German....
Täuschung.2016.German.AC3.1...
Evidence.1995.German.DL.1080...
Hybrid.2010.German.DL.1080p....
Die.Hitler.Chronik.COMPLETE....
In.a.World.Die.Macht.der.Sti...
The.Skeleton.Twins.2014.Germ...
The.Sickroom.2015.GERMAN.DL....
Boarding.School.2018.German....
Mr.Troop.Mom.Das.verrueckte....
Hook.1991.USA.UHD2BD.Ger.Dub...
Star.Wars.Episode.VI.Die.Rue...
25.Stunden.2002.German.AC3D....
The.Originals.S05.GERMAN.720...

 
 
Shapeshifter.2018.German.DL.1080p.BluRay.x264-iMPERiUM

Jahr: 2018
Genre: Horror, Thriller
Sprache: Deutsch DTS
Laufzeit: 1h 27mn
Bitrate: 9 498 Kbps
Format: MKV
Größe: 5.79 GiB
Release:

Beschreibung:

Dr. Andre Mason ist ein Neurowissenschaftler und Schöpfer eines bewusstseinserweiternden Serums, von dem er hofft, dass es Menschen einen Bick auf die andere Seite erlaubt, um mit verlorenen Lieben in Verbindung zu treten. Ihn selbst verfolgt immer noch der Tod seiner Frau und seines Sohnes. In einer abgelegenen Villa will er klinische Versuch durchführen und injiziert sich und seinem Team die Droge. Als das Serum beginnt zu wirken, stellen sie fest, dass es tatsächlich wirkt und ihnen erlaubt mit übernatürlichen Erscheinungen zu interagieren. Doch haben sie auch die Aufmerksamkeit von weit dunkleren Wesen auf sich gezogen – Legenden von Formwandlern.
Als Andre sich auf der Schwelle zwischen dem Reich der Lebenden und der Toten wiederfindet, muss er sich entscheiden: entweder für seine tote Familie oder sein Team von Wissenschaftlern, die ohne seine Hilfe diesem Experiment nicht lebend entkommen werden.



Complete name                            : shapeshifter.2018.german.dl.1080p.bluray.x264-imperium.mkv
Format                                   : Matroska
Format version                           : Version 2
File size                                : 5.79 GiB
Duration                                 : 1h 27mn
Overall bit rate                         : 9 498 Kbps
Writing application                      : mkvmerge v6.6.0 ('The Edge Of The In Between') built on Dec 1 2013 17:55:00
Writing library                          : libebml v1.3.0 + libmatroska v1.4.1

Video
ID                                       : 1
Format                                   : AVC
Format/Info                              : Advanced Video Codec
Format profile                           : High@L4.1
Format settings, CABAC                   : Yes
Format settings, ReFrames                : 5 frames
Codec ID                                 : V_MPEG4/ISO/AVC
Duration                                 : 1h 27mn
Bit rate                                 : 6 291 Kbps
Width                                    : 1 920 pixels
Height                                   : 816 pixels
Display aspect ratio                     : 2.35:1
Frame rate mode                          : Constant
Frame rate                               : 23.976 fps
Color space                              : YUV
Chroma subsampling                       : 4:2:0
Bit depth                                : 8 bits
Scan type                                : Progressive
Bits/(Pixel*Frame)                       : 0.167
Stream size                              : 3.84 GiB (66%)
Writing library                          : x264 core 157 r2935 545de2f
Encoding settings                        : cabac=1 / ref=5 / deblock=1:-3:-3 / analyse=0x3:0x133 / me=umh / subme=7 / psy=1 / psy_rd=1.00:0.15 / mixed_ref=1 / me_range=16 / chroma_me=1 / trellis=1 / 8x8dct=1 / cqm=0 / deadzone=21,11 / fast_pskip=0 / chroma_qp_offset=-3 / threads=25 / lookahead_threads=4 / sliced_threads=0 / nr=0 / decimate=1 / interlaced=0 / bluray_compat=0 / constrained_intra=0 / bframes=3 / b_pyramid=2 / b_adapt=2 / b_bias=0 / direct=3 / weightb=1 / open_gop=0 / weightp=2 / keyint=240 / keyint_min=24 / scenecut=40 / intra_refresh=0 / rc_lookahead=50 / rc=crf / mbtree=1 / crf=20.0 / qcomp=0.60 / qpmin=0 / qpmax=69 / qpstep=4 / ip_ratio=1.40 / aq=1:1.00
Language                                 : English
Default                                  : Yes
Forced                                   : No

Audio #1
ID                                       : 2
Format                                   : DTS
Format/Info                              : Digital Theater Systems
Mode                                     : 16
Format settings, Endianness              : Big
Codec ID                                 : A_DTS
Duration                                 : 1h 27mn
Bit rate mode                            : Constant
Bit rate                                 : 1 509 Kbps
Channel(s)                               : 6 channels
Channel positions                        : Front: L C R, Side: L R, LFE
Sampling rate                            : 48.0 KHz
Bit depth                                : 24 bits
Compression mode                         : Lossy
Stream size                              : 942 MiB (16%)
Title                                    : ger
Language                                 : German
Default                                  : Yes
Forced                                   : No

Audio #2
ID                                       : 3
Format                                   : DTS
Format/Info                              : Digital Theater Systems
Mode                                     : 16
Format settings, Endianness              : Big
Codec ID                                 : A_DTS
Duration                                 : 1h 27mn
Bit rate mode                            : Constant
Bit rate                                 : 1 509 Kbps
Channel(s)                               : 6 channels
Channel positions                        : Front: L C R, Side: L R, LFE
Sampling rate                            : 48.0 KHz
Bit depth                                : 24 bits
Compression mode                         : Lossy
Stream size                              : 942 MiB (16%)
Title                                    : eng
Language                                 : English
Default                                  : Yes
Forced                                   : No


Download:
Share Online Share OnlineShare OnlineShare Online
 

Kommentare