HD-AREA wünscht Euch eine besinnliche Weihnachtszeit ;)

DNS SERVER AENDERNum der staatlichen Zensur zu umgehen. Sollten wir von eurem Provider geseprrt werden, nutzt den TOR BROWSER oder ändert euren DNS SERVER.

Filmwünsche können bei uns im Forum abgegeben werden

Wir Speichern Nicht




 
 
 
Top Releases
Braven.2018.GERMAN.DL.1080p....
Braven.2018.GERMAN.720p.BluR...
Mary.und.die.Blume.der.Hexen...
Mary.und.die.Blume.der.Hexen...
Braven.2018.MULTI.COMPLETE.B...
Paradox.Kill.Zone.Bangkok.20...
Mary.und.die.Blume.der.Hexen...
The.Bouncer.2018.German.DL.1...
Kodachrome.2017.German.AC3D....
Operation.Finale.2018.German...

Cinedubs
Venom.German.DL.AC3.Dubbed.1...
Venom.2018.German.AC3D.5.1.D...
Venom.2018.German.AC3D.5.1.D...
Das.krumme.Haus.2017.GERMAN....
Das.krumme.Haus.2017.GERMAN....
I.Still.See.You.Sie.lassen.d...
I.Still.See.You.Sie.lassen.d...
Braven.2018.German.AC3D.DL.1...
Braven.2018.German.AC3D.DL.7...
Smallfoot.Ein.eisigartiges.A...

Neuerscheinungen 2017-18
Hoere.die.Stille.Der.Schreck...
Die.Supermonster.und.der.Wun...
Die.Supermonster.und.der.Wun...
Zoe.und.Raven.Es.weihnachtet...
Zoe.und.Raven.Es.weihnachtet...
Even.Lovers.Get.the.Blues.20...
Terrifier.2016.GERMAN.DL.108...
Renegades.Mission.of.Honor.2...
Bleeder.1999.German.1080p.Bl...
Shapeshifter.2018.German.DL....

XXX
GirlsOutWest.18.12.02.Daliah...
GirlsWay.18.12.02.Kenna.Jame...
ATKGirlfriends.18.12.03.Nikk...
GirlsWay.18.12.03.Zoey.Foxx....
FitnessRooms.18.12.03.Ashley...
GroupSexGames.18.11.25.Ann.M...
ATKHairy.18.12.03.Isabel.Ste...
GermanGooGirls.18.12.02.Ria....
GirlsGoneWild.18.11.29.Lexi....
Fitting-Room.18.12.01.Little...
ATKHairy.18.12.02.Pearl.Sage...
GirlsOutWest.18.12.03.Tash.T...
FatManFuck.17.09.22.Sophia.X...
FemJoy.18.12.01.Sasha.C.An.A...
FatManFuck.17.09.22.Skyler.S...
FamilyLust.18.11.24.Keilani....
GirlsGonePink.18.12.03.Madis...
GirlsGoneWild.18.11.26.Eden....
GloryHole.18.12.03.Karma.RX....
FuckTeamFive.18.12.01.Ariell...

3D
The.Art.of.Flight.3D.2011.Ge...
The.End.Of.The.World.3D.2010...
The.First.Avenger.Civil.War....
Die.Unglaublichen.2.2018.3D....
Skyscraper.3D.2018.MULTi.COM...
Ant-Man.And.The.Wasp.3D.2018...
Ant.Man.and.the.Wasp.3D.2018...
Die.Unglaublichen.2.3D.2018....
Die.Unglaublichen.2.2018.3D....
Die.Unglaublichen.2.2018.3D....
Sharknado.6.The.Last.One.3D....
Deep.Kleine.Helden.der.Tiefs...
Deep.3D.2017.MULTI.COMPLETE....
Detective.Dee.und.die.Legend...
Detective.Dee.und.die.Legend...

Old_Stuff
Akte.X.S04.German.DTS.DL.108...
Akte.X.S03.German.DTS.DL.108...
Dunkirk.1958.COMPLETE.BLURAY...
Das.Wunder.von.Manhattan.199...
The.Amazing.Spiderman.2.Rise...
Rise.of.the.Predator.2014.Ge...
Detective.Dee.und.das.Geheim...
Detective.Dee.Und.Der.Fluch....
Ghost.Rider.Spirit.of.Vengea...
Species.IV.Das.Erwachen.2007...
Species.IV.Das.Erwachen.2007...
Hotel.Transsilvanien.2012.Ge...
The.Dead.2010.German.DL.1080...
The.Dead.2.India.2013.German...
Britney.Spears.Live.The.Femm...

Filme
Madman.1981.German.DL.1080p....
Pony.Express.1953.German.DL....
Pony.Express.1953.German.720...
Mystic.River.2003.German.DL....
Ray.Donovan.S06.GERMAN.DUBBE...
Ray.Donovan.S06.GERMAN.DUBBE...
Bleeder.1999.German.720p.Blu...
Paratrooper.GERMAN.1988.DL.7...
American.Horror.Story.S08.GE...
American.Horror.Story.S08.GE...
Quantico.S03.GERMAN.DUBBED.7...
Outlander.S04.German.DD51.DL...
Krypton.S01.German.DD51.Dubb...
Metropolis.Berlin.Zwischen.K...
Hollywood.Adventures.2015.Ge...
Japans.Untergang.2013.German...
Hell.Baby.2013.German.DL.108...
Der.letzte.Wolf.2015.German....
Täuschung.2016.German.AC3.1...
Evidence.1995.German.DL.1080...
Hybrid.2010.German.DL.1080p....
Die.Hitler.Chronik.COMPLETE....
In.a.World.Die.Macht.der.Sti...
The.Skeleton.Twins.2014.Germ...

 
 
Pony.Express.1953.German.DL.1080p.BluRay.x264-iNKLUSiON

Jahr: 1953
Genre: Western
Sprache: Deutsch DTS | Englisch DTS
Laufzeit: 1h 41mn
Bitrate: 10.8 Mbps
Format: MKV
Größe: 7.65 GiB
Release:

Beschreibung:

1860: Buffalo Bill und Wild Bill Hickock sollen einen Postkurierdienst über den Kontinent aufbauen. Doch kalifornische Unionsgegner sabotieren den Pony Express und beliefern Indianer mit Waffen. Damit nicht genug: Bill verliebt sich in die Separatistin Evelyn



Complete name                            : inkl-ponyexpress-1080p.mkv
Format                                   : Matroska
Format version                           : Version 4 / Version 2
File size                                : 7.65 GiB
Duration                                 : 1h 41mn
Overall bit rate                         : 10.8 Mbps
Encoded date                             : UTC 2018-12-06 18:26:06
Writing application                      : mkvmerge v9.0.1 ('Obstacles') 64bit
Writing library                          : libebml v1.3.3 + libmatroska v1.4.4
DURATION                                 : 01:41:22.390000000
NUMBER_OF_FRAMES                         : 570224
NUMBER_OF_BYTES                          : 583909376
_STATISTICS_WRITING_APP                  : mkvmerge v9.0.1 ('Obstacles') 64bit
_STATISTICS_WRITING_DATE_UTC             : 2018-12-06 18:26:06
_STATISTICS_TAGS                         : BPS DURATION NUMBER_OF_FRAMES NUMBER_OF_BYTES

Video
ID                                       : 1
Format                                   : AVC
Format/Info                              : Advanced Video Codec
Format profile                           : High@L4.1
Format settings, CABAC                   : Yes
Format settings, ReFrames                : 4 frames
Codec ID                                 : V_MPEG4/ISO/AVC
Duration                                 : 1h 41mn
Bit rate                                 : 9 271 Kbps
Width                                    : 1 440 pixels
Height                                   : 1 080 pixels
Display aspect ratio                     : 4:3
Frame rate mode                          : Constant
Frame rate                               : 23.976 fps
Color space                              : YUV
Chroma subsampling                       : 4:2:0
Bit depth                                : 8 bits
Scan type                                : Progressive
Bits/(Pixel*Frame)                       : 0.249
Stream size                              : 6.42 GiB (84%)
Writing library                          : x264 core 157 r2935 545de2f
Encoding settings                        : cabac=1 / ref=4 / deblock=1:-1:-1 / analyse=0x3:0x113 / me=umh / subme=7 / psy=1 / psy_rd=1.00:0.00 / mixed_ref=1 / me_range=16 / chroma_me=1 / trellis=1 / 8x8dct=1 / cqm=0 / deadzone=21,11 / fast_pskip=0 / chroma_qp_offset=-2 / threads=12 / lookahead_threads=2 / sliced_threads=0 / nr=0 / decimate=1 / interlaced=0 / bluray_compat=0 / constrained_intra=0 / bframes=3 / b_pyramid=2 / b_adapt=1 / b_bias=0 / direct=3 / weightb=1 / open_gop=0 / weightp=2 / keyint=250 / keyint_min=23 / scenecut=40 / intra_refresh=0 / rc_lookahead=40 / rc=2pass / mbtree=1 / bitrate=9271 / ratetol=1.0 / qcomp=0.60 / qpmin=0 / qpmax=69 / qpstep=4 / cplxblur=20.0 / qblur=0.5 / ip_ratio=1.40 / aq=1:1.00
Default                                  : Yes
Forced                                   : No

Audio #1
ID                                       : 2
Format                                   : DTS
Format/Info                              : Digital Theater Systems
Mode                                     : 16
Format settings, Endianness              : Big
Codec ID                                 : A_DTS
Duration                                 : 1h 41mn
Bit rate mode                            : Constant
Bit rate                                 : 768 Kbps
Channel(s)                               : 2 channels
Channel positions                        : Front: L R
Sampling rate                            : 48.0 KHz
Bit depth                                : 24 bits
Compression mode                         : Lossy
Stream size                              : 557 MiB (7%)
Language                                 : German
Default                                  : Yes
Forced                                   : No

Audio #2
ID                                       : 3
Format                                   : DTS
Format/Info                              : Digital Theater Systems
Mode                                     : 16
Format settings, Endianness              : Big
Codec ID                                 : A_DTS
Duration                                 : 1h 41mn
Bit rate mode                            : Constant
Bit rate                                 : 768 Kbps
Channel(s)                               : 2 channels
Channel positions                        : Front: L R
Sampling rate                            : 48.0 KHz
Bit depth                                : 24 bits
Compression mode                         : Lossy
Stream size                              : 557 MiB (7%)
Language                                 : English
Default                                  : No
Forced                                   : No


Download:
Share Online Share OnlineShare OnlineShare Online
 

Kommentare